Рики Джервейс: Прямо из Англии / Ricky Gervais: Out of England :: FunkySouls


Содержание:
  • Изучайте английский язык с Рики Джервейсом.


  • Влабан · 31-Мар-11 20:01(6 лет 10 месяцев назад, ред. 08-Апр-11 19:27)

    Ricky Gervais: Out Of England 2/Рикки Джервейс: Прямо из Англии 2 (2010)
    Год выпуска: 2010
    Страна: США
    Жанр: stand-up comedy
    Продолжительность: 73 мин.
    Язык: Английский
    Субтитры: русские (осторожно, нецензурщина), английские
    Описание: Встречайте - обладатель Эмми (2 штуки), Золотого Глобуса (3 штуки), BAFTA (7 штук) и других кинонаград, режиссер, актер, сценарист и комик Рикки Джервейс на сцене Chicago Theatre.
    Этот замечательный человек с образованием философа имеет в послужном списке сериалы "Офис" и "Массовка" и такие фильмы, как "Изобретение Лжи" и - в эпизодах - "Ночь в Музее". А также он - единственный британский актер, поработавший над серией Симпсонов ("Homer Simpson, This Is Your Wife"). Он даже засветился в игре GTA 4 (именно, кстати, в роли стенд-апера).
    В стенд-апе он не последний человек. Как минимум - на сцене этого театра он уже во второй раз (первый Out of England - 2008). В своем выступлении Джервейс говорит и шутит о вещах, которые его действительно волнуют: гомосексуалисты среди людей и животных, ожирение, был ли Бог геем или же только Ной, терроризм - и многое другое. Но гвоздями программы являются, конечно, его хлесткие и внезапные "sick jokes" - жесткий черный юмор высшей концетрации.
    "Вы будете смеяться над тем, что даже не считали смешным" (с)
    А еще - нет запретных тем. Есть плохие шутки. (с)
    Но у Джервейса они отличные. Вы оцените.
    Качество: HDTV
    Формат: AVI
    Видео кодек: XviD
    Аудио кодек: MP3
    Полное имя : E:\Мои документы\Мои видеозаписи\Стэнд-ап\Рикки Джервейс Прямо из Англии-2.2010\Рикки Джервейс - Прямо из Англии-2 (2010).avi
    Формат : AVI
    Формат/Информация : Audio Video Interleave
    Размер файла : 702 Мбайт
    Продолжительность : 1 ч. 13 м.
    Общий поток : 1332 Кбит/сек
    Программа кодирования : VirtualDubMod 1.5.10.2 (build 2540/release)
    Библиотека кодирования : VirtualDubMod build 2540/release
    Видео
    Идентификатор : 0
    Формат : MPEG-4 Visual
    Профиль формата : Advanced Simple@L5
    Параметр BVOP формата : 2
    Параметр QPel формата : Нет
    Параметр GMC формата : Без точки перехода
    Параметр матрицы формата : Default (H.263)
    Идентификатор кодека : XVID
    Идентификатор кодека/Подсказка : XviD
    Продолжительность : 1 ч. 13 м.
    Битрейт : 1187 Кбит/сек
    Ширина : 624 пикс.
    Высота : 352 пикс.
    Соотношение сторон : 16:9
    Частота кадров : 29,970 кадр/сек
    Цветовое пространство : YUV
    Подвыборка цветности : 4:2:0
    Битовая глубина : 8 бит
    Тип развёртки : Прогрессивная
    Метод сжатия : С потерями
    Бит/(Пиксели*Кадры) : 0.180
    Размер потока : 625 Мбайт (89%)
    Библиотека кодирования : XviD 1.2.1 (UTC 2008-12-04)
    Аудио
    Идентификатор : 1
    Формат : MPEG Audio
    Версия формата : Version 1
    Профиль формата : Layer 3
    Режим : Joint stereo
    Расширение режима : MS Stereo
    Идентификатор кодека : 55
    Идентификатор кодека/Подсказка : MP3
    Продолжительность : 1 ч. 13 м.
    Вид битрейта : Переменный
    Битрейт : 128 Кбит/сек
    Канал(ы) : 2 канала(ов)
    Частота : 48,0 КГц
    Метод сжатия : С потерями
    Размер потока : 69,5 Мбайт (10%)
    Выравнивание : Соединение по промежуткам
    Продолжительность промежутка : 24 мс. (0,72 видеокадр)
    Время предзагрузки промежутка : 504 ms
    Библиотека кодирования : LAME3.90.
    Настройки программы : -m j -V 4 -q 2 -lowpass 17.6 --abr 128
    Источник: http://maintracker.org/forum/viewtopic.php?t=3504809

    Изучайте английский язык с Рики Джервейсом.


    Опубликовано: 17.02.2018 | Автор: Милена

    Рейтинг статьи: 5

    Ещё


    Всего 5 комментариев.


    24.03.2018 guilidgent:
    Рики Джервейс: Вне Англии 2 (2010) - смотреть онлайн фильм. Следить В закладки.  Надоело смотреть фильм «Рикки Джервейс: Прямо из Англии 2 (2010)»?

    21.03.2018 Евгений:
    Встречайте: обладатель Эмми (2 штуки), Золотого глобуса (3 штуки), BAFTA (7 штук) и других кинонаград (ну там реально много штук всяких), режиссер, актер, сценарист и комик и ваще — Рикки Джервейс.

    04.04.2018 Агата:
    2/Рикки Джервейс: Прямо из Англии 2 (2010) Год выпуска: 2010 Страна: США Жанр: stand-up comedy Продолжительность: 73 мин. Язык  В своем выступлении Джервейс говорит и шутит о вещах, которые его действительно волнуют.

    12.02.2018 smisapex:
    Одоната, например так, как Рики Джервейс шутит про толстых. И тут вопрос не в том, что "я так хочу", а в том, что "было бы не плохо шутить так, как захочешь, не боясь отхватить судебные иски, преследования и, в перспективе.

    09.03.2018 Борислав:
    В своем выступлении Джервейс говорит и шутит о вещах, которые его действительно волнуют: гомосексуалисты среди людей и животных, ожирение, был ли Бог геем или же только Ной, терроризм — и многое другое.  рикки джервейз.

    18.03.2018 Фатина:
    Рики Джервейс | Ricky Gervais. Показать ещё.  05. Рики Джервейс — Прямо из Англии 2 [2010] Русская озвучка.